Music Videos

Katy Perry Ft Juicy J - Dark Horse [Music Video] 1080p [Sbyky] MP4

  • Download 5x Faster
  • Download torrent
  • Direct Download
  • Rate this torrent +  |  -

Torrent info

Name:Katy Perry Ft Juicy J - Dark Horse [Music Video] 1080p [Sbyky] MP4.torrent

Magnet: Magnet Link

Seeds: 0

Leechers: 0

Available: Watch Online @ Movie4u

Total Size: 102.53 MB

Downloaded: 234

Torrent added: 2014-02-22 01:34:06

Last Updated: 0000-00-00 00:00:00 (Update Now)

Share:Bookmark and Share



Torrent Files List


Katy Perry Ft. Juicy J - Dark Horse [Music Video] 1080p [Sbyky].MP4 (Size: 102.53 MB) (Files: 1)

 Katy Perry Ft. Juicy J - Dark Horse [Music Video] 1080p [Sbyky].MP4

102.53 MB
 



tracker

leech seeds
 

Torrent description



General
Complete name : Katy Perry Ft. Juicy J - Dark Horse [Music Video] 1080p [Sbyky].MP4
Format : MPEG-4
Format profile : Base Media
Codec ID : isom
File size : 103 MiB
Duration : 3mn 45s
Overall bit rate mode : Variable
Overall bit rate : 3 823 Kbps
Encoded date : UTC 2014-02-18 14:23:18
Tagged date : UTC 2014-02-18 14:23:18

Video
ID : 1
Format : AVC
Format/Info : Advanced Video Codec
Format profile : High@L4.0
Format settings, CABAC : Yes
Format settings, ReFrames : 2 frames
Codec ID : avc1
Codec ID/Info : Advanced Video Coding
Duration : 3mn 44s
Bit rate : 3 695 Kbps
Width : 1 920 pixels
Height : 1 080 pixels
Display aspect ratio : 16:9
Frame rate mode : Variable
Frame rate : 23.976 fps
Minimum frame rate : 23.974 fps
Maximum frame rate : 24.590 fps
Color space : YUV
Chroma subsampling : 4:2:0
Bit depth : 8 bits
Scan type : Progressive
Bits/(Pixel*Frame) : 0.074
Stream size : 99.1 MiB (97%)
Encoded date : UTC 2014-02-18 14:23:18
Tagged date : UTC 2014-02-18 14:23:18

Audio
ID : 2
Format : AAC
Format/Info : Advanced Audio Codec
Format profile : LC
Codec ID : 40
Duration : 3mn 45s
Bit rate mode : Variable
Bit rate : 126 Kbps
Channel(s) : 2 channels
Channel positions : Front: L R
Sampling rate : 44.1 KHz
Compression mode : Lossy
Stream size : 3.37 MiB (3%)
Encoded date : UTC 2014-02-18 14:24:26
Tagged date : UTC 2014-02-18 14:24:26

Shared By Sbyky

related torrents

Torrent name

health leech seeds Size
 

comments (0)

Main Menu