Movies - Other

Coco Chanel & Igor Stravinsky (2010) DVDSCR-MAXSPEED

  • Download 5x Faster
  • Download torrent
  • Direct Download
  • Rate this torrent +  |  -
Coco Chanel & Igor Stravinsky (2010) DVDSCR-MAXSPEED

Download direct - no client needed


Torrent info

Name:Coco Chanel & Igor Stravinsky (2010) DVDSCR-MAXSPEED.torrent

Seeds: 0

Leechers: 0

Available: Watch Online @ Movie4u

Total Size: 707.13 MB

Downloaded: 46

Torrent added: 2010-05-25 20:35:15

Last Updated: 0000-00-00 00:00:00 (Update Now)

Share:Bookmark and Share



Torrent Files List


Coco Chanel & Igor Stravinsky (2010) DVDSCR-MAXSPEED.avi (Size: 707.13 MB) (Files: 2)

 Coco Chanel & Igor Stravinsky (2010) DVDSCR-MAXSPEED.avi

707.13 MB

 info.txt

1.33 KB
 



Announce URL: http://tracker.thepiratebay.org/announce

Torrent description

Format : AVI
Format/Info : Audio Video Interleave
Overall bit rate : 1 502 Kbps


Video
ID : 0
Format : MPEG-4 Visual
Format profile : AdvancedSimple[@]L5
Format settings, BVOP : Yes
Format settings, QPel : No
Format settings, GMC : No warppoints
Format settings, Matrix : Default (H.263)
Codec ID : XVID
Codec ID/Hint : XviD
Bit rate : 1 363 Kbps
Width : 608 pixels
Height : 256 pixels
Display aspect ratio : 2.35:1
Frame rate : 25.000 fps
Resolution : 24 bits
Colorimetry : 4:2:0
Scan type : Progressive
Bits/(Pixel*Frame) : 0.350
Stream size : 1.24 GiB (91%)
Writing library : XviD 1.2.1 (UTC 2008-12-04)

Audio
ID : 1
Format : MPEG Audio
Format version : Version 1
Format profile : Layer 3
Codec ID : 55
Codec ID/Hint : MP3
Duration : 2h 10mn
Bit rate mode : Variable
Bit rate : 128 Kbps
Channel(s) : 2 channels
Sampling rate : 48.0 KHz
Resolution : 16 bits
Stream size : 118 MiB (8%)
Alignment : Aligned on interleaves
Interleave, duration : 24 ms (0.60 video frame)
Interleave, preload duration : 231 ms

related torrents

Torrent name

health leech seeds Size
 

comments (0)

Main Menu